Идеальная прическа навсегда 1 сезон 1 серия

Идеальная прическа навсегда 1 сезон 1 серия
Идеальная прическа навсегда 1 сезон 1 серия
Идеальная прическа навсегда 1 сезон 1 серия

Идеальная Причёска Навсегда / Perfect Hair Forever Страна: США
Студия: Williams Street, Radical Axis
Жанр: Комедия, Пародия, Трэш
Продолжительность: 11 минут
Год выпуска: 2004-2005
Перевод: Профессиональный (многоголосый закадровый) [2x2]
Субтитры: Нет
Режиссёр: Майк Лаззо, Мэтт Харриган, Мэтт Мейларио / Mike Lazzo, Matt Harrigan, Matt Maiellaro
Роли озвучивали: Kim Manning, Dave Willis, Nick Ingkatanuwat, George Lowe, Dan Dumile Описание: Perfect Hair Forever - американский мультсериал, пародия на аниме, созданный и спродюсированный студией Williams Street. Аморфный мальчик Джеральльд с залысинами мечтает об идеальной прическе навсегда. По тернистому пути постижения того, как этого можно достичь, его ведет мудрый дедушка сенсей в трусах, поющие хотдоги и много всякого такого, что лучше один раз увидеть, чем сто раз прочитать. Противостоят ему злой Коиффио и его помощники. Причины, объясняющие их ненависть к нему, не раскрываются. Список серий:
01 Perfect Hair Forever (Pilot)
02 Tivo Your eBay
03 Cat Snatch Fever
04 Happy Suck Day
05 Tusk
06 Woke Up Drunk
07 Return to Balding Victory Качество: HDTVRip 720p
Формат: MKV
Видео: MPEG-4 AVC, 1280x720 (16:9), 23.976 fps, 2000 kbps
Аудио 1: Русский, AC3 Dolby Digital, 2 ch, 192 kbps, 48 kHz
Аудио 2: Английский, AC3 Dolby Digital, 6 ch, 448 kbps, 48 kHz
Все раздачи мультсериала

Персонажи

  • Джеральд Белд Зи (Gerald Bald Z) - главный герой шоу, Джеральд, юный мальчик, страдающий от серьёзного выпадения волос, отправляющийся в путешествие, чтобы найти Идеальную Причёску Навсегда. Путешествие является прямой отсылкой к аниме "Драконий Жемчуг". Мальчик является оптимистом, который верит, что рано или поздно он обязательно достигнет своей цели.
  • Экшн Хотдог (Action Hotdog) - первый "помощник" Джеральда, присоединившийся к нему, как подарок от Дяди Дедушки. Хотдог всегда летает рядом с Джеральдом и говорит только одну фразу: "Doo da la-la-la-la-la-la la la-la-laaaaa-la-la!"
  • Коиффио (Coiffio) - главный антагонист сериала, человек-индивидуалист с огромной разноцветной причёской. Он очень похож на Дядю Дедушку, только в отличие от него, Коиффио находится в хорошей спортивной форме.
  • Типа Кот (Catman) - сердитый толстый человек в костюме Кота. Является главным подручным Коиффио. У него есть миниган, из которого он стреляет во всё, что его раздражает.
  • Норман Дуглас (Norman Douglas) - также известный, как Ненужное Комедийное Дерево. Норман сначала был агентом Коиффио. Его задание было следить и наблюдать за Джеральдом. Он всегда говорит очень громко, что раздражает всех находящихся рядом. Не доверяет Терри/Твисти.
  • Дядя Дедушка (Uncle Grandfather) - отец Джеральда, объект подражания для него. Дядя почти всё время проводит у себя дома, наблюдая за попкой сексуальной Бренды или читает порнографию.
  • Терри/Твисти (Terry/Twisty) - одно из существ, присоединившихся к Джеральду. Терри/Твисти - это торнадо, которое осознаёт, что страдает раздвоением личности.
  • Молодой Человек (Young Man) - "Король Всех Животных", как он сам себя называет, молодой, полный энергий человек, одетый в ярко-пурпурный костюм.
  • Род, Бог Аниме (Rod, the Anime God) - это огненное существо с склонностью к внезапному появлению перед лицами людей, когда они этого менее всего ожидают.

Скриншоты


MI


Общее
Уникальный идентификатор : 231873637121804713523821245008603360581 (0xAE713CF46DC0E13FB8C8169E8449AD45)
Полное имя : D:\Раздачи\Perfect.Hair.Forever.Season.1.2004-2005.x264.HDTV.720p.Zuich32 Perfect Hair Forever (Pilot).mkv
Формат : Matroska
Версия формата : Version 4 / Version 2
Размер файла : 163 Мбайт
Продолжительность : 11 м.
Общий поток : 2411 Кбит/сек
Дата кодирования : UTC 2013-05-19 14:02:25
Программа кодирования : mkvmerge v6.2.0 ('Promised Land') built on Apr 28 2013 12:22:01
Библиотека кодирования : libebml v1.3.0 + libmatroska v1.4.0
Видео
Идентификатор : 1
Формат : AVC
Формат/Информация : Advanced Video Codec
Профиль формата : High@L4.1
Параметр CABAC формата : Да
Параметр ReFrames формата : 16 кадров
Идентификатор кодека : V_MPEG4/ISO/AVC
Продолжительность : 11 м.
Битрейт : 1733 Кбит/сек
Ширина : 1280 пикселей
Высота : 720 пикселей
Соотношение сторон : 16:9
Режим частоты кадров : Постоянный
Частота кадров : 23,976 кадра/сек
Цветовое пространство : YUV
Субдискретизация насыщенности : 4:2:0
Битовая глубина : 8 бит
Тип развёртки : Прогрессивная
Бит/(ПикселиКадры) : 0.056
Размер потока : 105 Мбайт (65%)
Заголовок : Pilot
Библиотека кодирования : x264 core 130 r2273 b3065e6
Настройки программы : cabac=1 / ref=16 / deblock=1:-1:-1 / analyse=0x3:0x133 / me=umh / subme=10 / psy=1 / psy_rd=1.00:0.00 / mixed_ref=1 / me_range=24 / chroma_me=1 / trellis=2 / 8x8dct=1 / cqm=0 / deadzone=21,11 / fast_pskip=0 / chroma_qp_offset=-2 / threads=6 / lookahead_threads=1 / sliced_threads=0 / nr=0 / decimate=1 / interlaced=0 / bluray_compat=0 / constrained_intra=0 / bframes=4 / b_pyramid=2 / b_adapt=2 / b_bias=0 / direct=3 / weightb=1 / open_gop=0 / weightp=2 / keyint=250 / keyint_min=23 / scenecut=40 / intra_refresh=0 / rc_lookahead=60 / rc=crf / mbtree=1 / crf=21.0 / qcomp=0.60 / qpmin=0 / qpmax=69 / qpstep=4 / ip_ratio=1.40 / aq=1:1.00
Default : Да
Forced : Нет
Аудио #1
Идентификатор : 2
Формат : AC-3
Формат/Информация : Audio Coding 3
Расширение режима : CM (complete main)
Параметр Endianness формата : Big
Идентификатор кодека : A_AC3
Продолжительность : 11 м.
Вид битрейта : Постоянный
Битрейт : 192 Кбит/сек
Каналы : 2 канала
Расположение каналов : Front: L R
Частота : 48,0 КГц
Битовая глубина : 16 бит
Метод сжатия : С потерями
Размер потока : 16,4 Мбайт (10%)
Заголовок : 2x2 - AC3 Dolby Digital, 2ch, 192 kbps, 48 kHz
Язык : Russian
Default : Да
Forced : Нет
Аудио #2
Идентификатор : 3
Формат : AC-3
Формат/Информация : Audio Coding 3
Расширение режима : CM (complete main)
Параметр Endianness формата : Big
Идентификатор кодека : A_AC3
Продолжительность : 11 м.
Вид битрейта : Постоянный
Битрейт : 448 Кбит/сек
Каналы : 6 каналов
Расположение каналов : Front: L C R, Side: L R, LFE
Частота : 48,0 КГц
Битовая глубина : 16 бит
Метод сжатия : С потерями
Размер потока : 38,2 Мбайт (23%)
Заголовок : Original - AC3 Dolby Digital, 6ch, 448 kbps, 48 kHz
Язык : English
Default : Нет
Forced : Нет

Download

Сайт не распространяет и не хранит электронные версии произведений, а лишь предоставляет доступ к создаваемому пользователями каталогу ссылок на торрент-файлы, которые содержат только списки хеш-сумм

Идеальная прическа навсегда 1 сезон 1 серия Идеальная прическа навсегда 1 сезон 1 серия Идеальная прическа навсегда 1 сезон 1 серия Идеальная прическа навсегда 1 сезон 1 серия Идеальная прическа навсегда 1 сезон 1 серия Идеальная прическа навсегда 1 сезон 1 серия Идеальная прическа навсегда 1 сезон 1 серия Идеальная прическа навсегда 1 сезон 1 серия

Изучаем далее:



Вязание снуда восьмерка

Прически для длинных волос с челкой с распущенными волосами

Лак для ногтей педикюр долго держится

Как сделать с шампиньонами

Как сделать для броши застежку